BBC Proms 2019 Prom 70 Jonny Greenwood Curates (1280x720p HD, 50f


    Seeders : 5      Leechers : 0


Please Turn on your VPN before Downloading Torrents.
Your IP Address is 83.171.253.170.   And Location ,
Your Internet Service Provider and Government can track your Online Activity!  Protect yourself from expensive lawsuits and fines NOW!
We Strongly Recommend Using Very Cheap VPN for P2P to Anonymize your Torrenting.

Note :

Please Update (Trackers Info) Before Start Torrents Downloading to See Updated Seeders And Leechers for Batter Download Speed.

Trackers List

Tracker NameLast CheckStatusSeedersLeechers
udp://tracker.leechers-paradise.org:6969/announce7 hours agosuccess50
udp://tracker.coppersurfer.tk:6969/announce7 hours agosuccess50
udp://tracker.pirateparty.gr:6969/announce7 hours agosuccess50
udp://open.stealth.si:80/announce7 hours agosuccess50
udp://tracker.tiny-vps.com:6969/announce7 hours agosuccess50
udp://9.rarbg.to:2740/announce7 hours agosuccess40
udp://9.rarbg.to:2730/announce7 hours agosuccess40
udp://9.rarbg.me:2770/announce7 hours agosuccess40
udp://9.rarbg.me:2730/announce7 hours agosuccess40
udp://9.rarbg.me:2740/announce7 hours agosuccess40
udp://9.rarbg.to:2770/announce7 hours agosuccess40
udp://9.rarbg.to:2710/announce7 hours agosuccess40
udp://9.rarbg.to:2720/announce7 hours agosuccess40
udp://tracker.internetwarriors.net:1337/announce7 hours agosuccess10
udp://tracker.opentrackr.org:1337/announce7 hours agosuccess10
udp://retracker.lanta-net.ru:2710/announce7 hours agosuccess10
udp://tracker.cyberia.is:6969/announce7 hours agosuccess00
udp://tracker.port443.xyz:6969/announce7 hours agofailed00
udp://tracker.mg64.net:6969/announce2 days agofailed00
udp://tracker.zer0day.to:1337/announce6 days agofailed00
udp://ipv4.tracker.harry.lu:80/announce7 hours agosuccess00
udp://tracker.torrent.eu.org:451/announce7 hours agosuccess00
udp://bt. -tracker.com:2710/announce7 hours agofailed00
udp://ipv6.tracker.harry.lu:80/announce7 hours agosuccess00
udp://tracker.justseed.it:1337/announce7 hours agosuccess00
udp://eddie4.nl:6969/announce2 days agofailed00
udp://exodus.desync.com:6969/announce7 hours agosuccess00



Torrent File Content (8 files)


BBC Proms 2019 Prom 70 Jonny Greenwood Curates
     About this torrent.txt -
2.04 KB

     BBC Proms 2019 Prom 70 Jonny Greenwood Curates.jpg -
879.86 KB

     BBC Proms 2019 Prom 70 Jonny Greenwood Curates.mp4 -
3.24 GB

     BBC Proms 2019 Prom 70 Jonny Greenwood Curates.srt -
26.71 KB

     Downloaded from Demonoid - www.dnoid.to.txt -
56 bytes

     If this torrent is dead.txt -
109 bytes

     Torrent Downloaded From 1337x.to.txt -
0 bytes

     [TGx]Downloaded from torrentgalaxy.org .txt -
566 bytes



Description



BBC Proms 2019 Prom 70 Jonny Greenwood Curates (1280x720p HD, 50fps, soft Eng subs)

Jess Gillam introduces an evening of music curated by Radiohead lead guitarist and award-winning film composer Jonny Greenwood. Hugh Brunt conducts the BBC Proms 2019 Prom 70 Jonny Greenwood Curates (1280x720p HD, 50fps, soft Eng subs)

BBC National Orchestra of Wales and BBC Proms Youth Ensemble, joined by pianist Katherine Tinkler and violinist Daniel Pioro, in a varied programme culminating in the world premiere of Greenwood's own Horror vacui for solo violin and 68 strings.

First broadcast: 13 September 2019
Duration: 90 minutes

Torrent dead? Request reseed at torrentgalaxy.org - or ask at elsonroa at tutanota.com



Media info:-
General
Format : MPEG-4
Format profile : Base Media
Codec ID : isom (isom/iso2/avc1/mp41)
File size : 3.24 GiB
Duration : 1h 29mn
Overall bit rate mode : Variable
Overall bit rate : 5 166 Kbps

Video
ID : 1
Format : AVC
Format/Info : Advanced Video Codec
Format profile : [email protected]
Format settings, CABAC : Yes
Format settings, ReFrames : 2 frames
Codec ID : avc1
Codec ID/Info : Advanced Video Coding
Duration : 1h 29mn
Bit rate : 5 026 Kbps
Width : 1 280 pixels
Height : 720 pixels
Display aspect ratio : 16:9
Frame rate mode : Variable
Frame rate : 50.000 fps
Minimum frame rate : 25.000 fps
Maximum frame rate : 90 000.000 fps
Standard : Component
Color space : YUV
Chroma subsampling : 4:2:0
Bit depth : 8 bits
Scan type : Progressive
Bits/(Pixel*Frame) : 0.109
Stream size : 3.15 GiB (97%)
Encoded date : UTC 1904-01-01 00:00:00
Tagged date : UTC 1904-01-01 00:00:00
Color range : Limited
Color primaries : BT.709
Transfer characteristics : BT.709
Matrix coefficients : BT.709

Audio
ID : 2
Format : AAC
Format/Info : Advanced Audio Codec
Format profile : LC
Codec ID : 40
Duration : 1h 29mn
Bit rate mode : Variable
Bit rate : 125 Kbps
Maximum bit rate : 140 Kbps
Channel(s) : 2 channels
Channel positions : Front: L R
Sampling rate : 48.0 KHz
Frame rate : 46.875 fps (1024 spf)
Compression mode : Lossy
Stream size : 80.6 MiB (2%)
Language : English


Related torrents

Torrent NameAddedSizeSeedLeechHealth
7 days ago - in Music182.76 MB60
1 Year+ - in TV shows4.14 GB16
1 Year+ - in TV shows4.55 GB11
1 Year+ - in TV shows3.94 GB33
1 Year+ - in TV shows3.2 GB11
1 Year+ - in TV shows3.31 GB024

Note :

Feel free to post any comments about this torrent, including links to Subtitle, samples, screenshots, or any other relevant information. Watch BBC Proms 2019 Prom 70 Jonny Greenwood Curates (1280x720p HD, 50f Free Movies Online, Like 123Movies, Fmovies, Putlockers, Popcorntime, Netflix or Direct Download BBC Proms 2019 Prom 70 Jonny Greenwood Curates (1280x720p HD, 50f via Magnet Link.

Comments (0 Comments)




Please login or create a FREE account to post comments

Latest Searches