Ratanpur Gujrati 2018 1080p AMZN WEB DL H264 DDP2 0 ESUBS - Movie


    Seeders : 5      Leechers : 8


WARNING! Turn on your VPN before downloading Torrents.
Your IP Address is 185.251.15.131.   And Location Russian Federation,
Your Internet Service Provider and Government can track your Online Activity!  Protect yourself from expensive lawsuits and fines NOW!
We Strongly Recommend Using Very Cheap VPN for P2P to Anonymize your Torrenting.

Note :

Please Update (Trackers Info) Before Start Torrents Downloading to See Updated Seeders And Leechers for Batter Download Speed.

Trackers List

Tracker NameLast CheckStatusSeedersLeechers
udp://tracker.opentrackr.org:1337/announceYesterdaysuccess58
udp://thetracker.org:80/announceYesterdaysuccess45
udp://tracker.internetwarriors.net:1337/announceYesterdaysuccess44
udp://tracker.tiny-vps.com:6969/announceYesterdaysuccess44
udp://9.rarbg.me:2710/announceYesterdaysuccess23
udp://9.rarbg.me:2730/announceYesterdaysuccess23
udp://9.rarbg.me:2740/announceYesterdaysuccess23
udp://9.rarbg.me:2770/announceYesterdaysuccess23
udp://9.rarbg.to:2740/announceYesterdaysuccess23
udp://9.rarbg.to:2730/announceYesterdaysuccess23
udp://9.rarbg.to:2710/announceYesterdaysuccess23
udp://9.rarbg.to:2770/announceYesterdaysuccess23
udp://9.rarbg.to:2720/announceYesterdaysuccess23
udp://tracker.pirateparty.gr:6969/announceYesterdayfailed00
udp://public.popcorn-tracker.org:6969/announceYesterdayfailed00
udp://tracker.cypherpunks.ru:6969/announceYesterdayfailed00
udp://inferno.demonoid.pw:3418/announceYesterdayfailed00
udp://tracker.cyberia.is:6969/announceYesterdaysuccess00
udp://asnet.pw:2710/announceYesterdayfailed00
udp://tracker.acg.gg:2710/announceYesterdayfailed00
udp://tracker.port443.xyz:6969/announceYesterdayfailed00
udp://tracker.vanitycore.co:6969/announceYesterdayfailed00
udp://tracker.zer0day.to:1337/announceYesterdayfailed00
https://bt.acg.gg:1578/announceYesterdayfailed00
udp://ipv4.tracker.harry.lu:80/announceYesterdaysuccess00
udp://tracker.trackerfix.com:80/announceYesterdayfailed00
udp://exodus.desync.com:6969/announceYesterdaysuccess00
udp://tracker.coppersurfer.tk:6969/announce3 days agosuccess00
udp://shadowshq.yi.org:6969/announce3 days agofailed00
udp://eddie4.nl:6969/announceYesterdayfailed00
https://share.camoe.cn:8080/announceYesterdayfailed00
udp://tracker.justseed.it:1337/announceYesterdaysuccess00
udp://tracker.coppersurfer.tk:80/announceYesterdayfailed00
udp://ipv6.tracker.harry.lu:80/announceYesterdaysuccess00
https://tracker3.itzmx.com:8080/announceYesterdayfailed00
udp://bt. -tracker.com:2710/announceYesterdaysuccess00
udp://glotorrents.pw:6969/announceYesterdayfailed00
udp://p4p.arenabg.ch:1337/announceYesterdayfailed00
udp://open.stealth.si:80/announceYesterdayfailed00
udp://tracker.torrent.eu.org:451/announceYesterdaysuccess00
udp://tracker.mg64.net:6969/announceYesterdayfailed00
udp://tracker.torrent.eu.org:451Yesterdaysuccess00



Torrent File Content (1 file)


Ratanpur.Gujrati.2018.1080p.AMZN.WEB.DL.H264.DDP2.0.ESUBS - MoviePirate.[Telly]
     Ratanpur.Gujrati.2018.1080p.AMZN.WEB.DL.H264.DDP2.0.ESUBS - MoviePirate.[Telly].mkv -
5.32 GB



Description



www.MoviePirate.club



****************************
_____ _ _ 
|_ _|___ | || | _ _ 
| | / _ | || || | | |
| || __/| || || |_| |
|_| ___||_||_| __, |
|___/ 
****************************
Team Telly Proudly Presents
****************************
------------------
|Media Info|
------------------
Format                                   : Matroska
Format version                           : Version 4
File size                                : 5.32 GiB
Duration                                 : 2 h 4 min
Overall bit rate                         : 6 102 kb/s
Encoded date                             : UTC 2019-06-12 16:30:13
Writing application                      : mkvmerge v30.1.0 ('Forever And More') 64-bit
Writing library                          : libebml v1.3.6 + libmatroska v1.4.9
Video
ID                                       : 1
Format                                   : AVC
Format/Info                              : Advanced Video Codec
Format profile                           : [email protected]
Format settings                          : CABAC / 4 Ref Frames
Format settings, CABAC                   : Yes
Format settings, RefFrames               : 4 frames
Codec ID                                 : V_MPEG4/ISO/AVC
Duration                                 : 2 h 4 min
Bit rate                                 : 5 876 kb/s
Width                                    : 1 920 pixels
Height                                   : 872 pixels
Display aspect ratio                     : 2.2:1
Original display aspect ratio            : 2.2:1
Frame rate mode                          : Constant
Frame rate                               : 25.000 FPS
Color space                              : YUV
Chroma subsampling                       : 4:2:0
Bit depth                                : 8 bits
Scan type                                : Progressive
Bits/(Pixel*Frame)                       : 0.140
Stream size                              : 5.12 GiB (96%)
Default                                  : Yes
Forced                                   : No
Color range                              : Limited
Color primaries                          : BT.709
Transfer characteristics                 : BT.709
Matrix coefficients                      : BT.709
Audio
ID                                       : 2
Format                                   : E-AC-3
Format/Info                              : Enhanced AC-3
Commercial name                          : Dolby Digital Plus
Codec ID                                 : A_EAC3
Duration                                 : 2 h 4 min
Bit rate mode                            : Constant
Bit rate                                 : 224 kb/s
Channel(s)                               : 2 channels
Channel layout                           : L R
Sampling rate                            : 48.0 kHz
Frame rate                               : 31.250 FPS (1536 SPF)
Compression mode                         : Lossy
Stream size                              : 200 MiB (4%)
Service kind                             : Complete Main
Default                                  : Yes
Forced                                   : No
Text
ID                                       : 3
Format                                   : UTF-8
Codec ID                                 : S_TEXT/UTF8
Codec ID/Info                            : UTF-8 Plain Text
Duration                                 : 2 h 0 min
Bit rate                                 : 71 b/s
Count of elements                        : 1703
Stream size                              : 63.0 KiB (0%)
Title                                    : SDH
Language                                 : English
Default                                  : No
Forced                                   : No
****************************
Tellytorrent.net 
Team Telly Official Site
****************************
www.MoviePirate.club
Enjoy Exclusives Content only on TellyTorrent.net






Related torrents

Torrent NameAddedSizeSeedLeechHealth
3 months ago - in Movies5.38 GB21
9 days ago - in Movies5.59 GB113
9 days ago - in Movies7.65 GB11
11 days ago - in Movies6.3 GB11
8 months ago - in Movies1.91 GB104
10 months ago - in Movies3.42 GB03

Note :

Feel free to post any comments about this torrent, including links to Subtitle, samples, screenshots, or any other relevant information. Watch Ratanpur Gujrati 2018 1080p AMZN WEB DL H264 DDP2 0 ESUBS - Movie Free Movies Online, Like 123Movies, Fmovies, Putlockers, Popcorntime, Netflix or Direct Download Ratanpur Gujrati 2018 1080p AMZN WEB DL H264 DDP2 0 ESUBS - Movie via Magnet Link.

Comments (0 Comments)




Please login or create a FREE account to post comments
Quick Browse
Movies
TV shows
Music
Games
Applications
Anime
Other

Latest Articles

Friends

LimeTorrents

Latest Searches