The Son S02E03 (1080p AMZN WEB-DL x265 HEVC 10bit AC3 5 1 Qman) [


    Seeders : 4      Leechers : 5

Warning! Please Download Torrents with a VPN.
Your Internet Service Provider and Government can track your Online Activity!  Protect yourself from expensive lawsuits and fines NOW!
We Strongly Recommend Using FREE VPN for P2P to Anonymize your Torrenting.

Note :

Please Update (Trackers Info) Before Start Torrents Downloading to See Updated Seeders And Leechers for Batter Download Speed.

Trackers List

Tracker NameLast CheckStatusSeedersLeechers
udp://9.rarbg.me:2710/announce2 hours agosuccess40
udp://9.rarbg.to:2720/announce2 hours agosuccess40
udp://9.rarbg.to:2770/announce2 hours agosuccess40
udp://9.rarbg.to:2730/announce2 hours agosuccess40
udp://9.rarbg.to:2740/announce2 hours agosuccess40
udp://9.rarbg.me:2770/announce2 hours agosuccess40
udp://9.rarbg.me:2730/announce2 hours agosuccess40
udp://9.rarbg.me:2740/announce2 hours agosuccess40
udp://tracker.opentrackr.org:1337/announce2 hours agosuccess45
udp://9.rarbg.to:2710/announce2 hours agosuccess40
udp://tracker.coppersurfer.tk:6969/announce2 hours agosuccess34
udp://open.stealth.si:80/announce2 hours agosuccess10
udp://tracker.internetwarriors.net:1337/announce2 hours agosuccess11
udp://tracker.tiny-vps.com:6969/announce2 hours agosuccess10
udp://thetracker.org:80/announce2 hours agosuccess10
udp://ipv4.tracker.harry.lu:80/announce2 hours agosuccess00
udp://p4p.arenabg.ch:1337/announce2 hours agofailed00
https://bt.acg.gg:1578/announce2 hours agofailed00
udp://tracker.port443.xyz:6969/announce2 hours agofailed00
udp://tracker.acg.gg:2710/announce2 hours agofailed00
udp://asnet.pw:2710/announce2 hours agofailed00
udp://tracker.cyberia.is:6969/announce2 hours agosuccess00
udp://inferno.demonoid.pw:3418/announce2 days agofailed00
udp://tracker.cypherpunks.ru:6969/announce2 hours agofailed00
udp://public.popcorn-tracker.org:6969/announce2 hours agofailed00
udp://exodus.desync.com:6969/announce2 hours agosuccess00
udp://tracker.pirateparty.gr:6969/announce2 days agofailed00
udp://shadowshq.yi.org:6969/announce2 hours agofailed00
udp://eddie4.nl:6969/announce2 hours agofailed00
udp://tracker.vanitycore.co:6969/announce2 hours agofailed00
udp://tracker.zer0day.to:1337/announce2 hours agofailed00
https://share.camoe.cn:8080/announce2 hours agofailed00
udp://tracker.justseed.it:1337/announce2 hours agofailed00
udp://tracker.coppersurfer.tk:80/announce2 hours agofailed00
https://tracker3.itzmx.com:8080/announce2 hours agofailed00
udp://tracker.torrent.eu.org:4512 hours agosuccess00
udp://tracker.mg64.net:6969/announce2 hours agofailed00
udp://tracker.torrent.eu.org:451/announce2 hours agosuccess00
udp://ipv6.tracker.harry.lu:80/announce2 hours agosuccess00
udp://tracker.trackerfix.com:80/announce2 hours agofailed00
udp://bt. -tracker.com:2710/announce2 hours agosuccess00
udp://glotorrents.pw:6969/announce2 hours agofailed00



Torrent File Content (1 file)


The Son S02E03 (1080p AMZN WEB-DL x265 HEVC 10bit AC3 5.1 Qman) [UTR]
     The.Son.S02E03.1080p.AMZN.WEB-DL.x265.10bit.EAC3.6.0-Qman[UTR].mkv -
919.89 MB



Description









Media Information

Media Information

Code:General
Format : Matroska
Format version : Version 4 / Version 2
File size : 920 MiB
Duration : 43 min 1 s
Overall bit rate : 2 989 kb/s
Encoded date : UTC 2019-05-15 19:48:57
Writing application : mkvmerge v30.1.0 ('Forever And More') 64-bit
Writing library : libebml v1.3.6 + libmatroska v1.4.9

Video
ID : 1
Format : HEVC
Format/Info : High Efficiency Video Coding
Format profile : Main [email protected]@Main
Codec ID : V_MPEGH/ISO/HEVC
Duration : 43 min 1 s
Bit rate : 2 347 kb/s
Width : 1 920 pixels
Height : 1 080 pixels
Display aspect ratio : 16:9
Frame rate mode : Constant
Frame rate : 23.976 (24000/1001) FPS
Color space : YUV
Chroma subsampling : 4:2:0
Bit depth : 10 bits
Bits/(Pixel*Frame) : 0.047
Stream size : 722 MiB (79%)
Writing library : x265 3.0_Au+22-feec4bdf9866:[Windows][MSVC 1920][64 bit] 10bit
Encoding settings : cpuid=1111039 / frame-threads=2 / numa-pools=4 / wpp / no-pmode / no-pme / no-psnr / no-ssim / log-level=2 / input-csp=1 / input-res=1920x1080 / interlace=0 / total-frames=61896 / level-idc=0 / high-tier=1 / uhd-bd=0 / ref=4 / no-allow-non-conformance / no-repeat-headers / annexb / no-aud / no-hrd / info / hash=0 / no-temporal-layers / open-gop / min-keyint=23 / keyint=250 / gop-lookahead=0 / bframes=8 / b-adapt=2 / b-pyramid / bframe-bias=0 / rc-lookahead=50 / lookahead-slices=4 / scenecut=40 / radl=0 / no-splice / no-intra-refresh / ctu=64 / min-cu-size=8 / no-rect / no-amp / max-tu-size=32 / tu-inter-depth=1 / tu-intra-depth=1 / limit-tu=0 / rdoq-level=2 / dynamic-rd=0.00 / no-ssim-rd / signhide / no-tskip / nr-intra=0 / nr-inter=0 / no-constrained-intra / no-strong-intra-smoothing / max-merge=3 / limit-refs=3 / limit-modes / me=3 / subme=3 / merange=57 / temporal-mvp / weightp / no-weightb / no- yze-src-pics / deblock=1:1 / no-sao / no-sao-non-deblock / rd=4 / no-early-skip / no-rskip / no-fast-intra / no-tskip-fast / no-cu-lossless / no-b-intra / no-splitrd-skip / rdpenalty=0 / psy-rd=1.40 / psy-rdoq=1.00 / no-rd-refine / no-lossless / cbqpoffs=0 / crqpoffs=0 / rc=crf / crf=21.0 / qcomp=0.60 / qpstep=4 / stats-write=0 / stats-read=0 / ipratio=1.40 / pbratio=1.30 / aq-mode=2 / aq-strength=1.00 / cutree / zone-count=0 / no-strict-cbr / qg-size=32 / no-rc-grain / qpmax=69 / qpmin=0 / no-const-vbv / sar=0 / overscan=0 / videoformat=5 / range=0 / colorprim=2 / transfer=2 / colormatrix=2 / chromaloc=0 / display-window=0 / max-cll=0,0 / min-luma=0 / max-luma=1023 / log2-max-poc-lsb=8 / vui-timing-info / vui-hrd-info / slices=1 / no-opt-qp-pps / no-opt-ref-list-length-pps / no-multi-pass-opt-rps / scenecut-bias=0.05 / no-opt-cu-delta-qp / no-aq-motion / no-hdr / no-hdr-opt / no-dhdr10-opt / no-idr-recovery-sei / ysis-reuse-level=5 / scale-factor=0 / refine-intra=0 / refine-inter=0 / refine-mv=0 / refine-ctu-distortion=0 / no-limit-sao / ctu-info=0 / no-lowpass-dct / refine- ysis-type=0 / copy-pic=1 / max-ausize-factor=1.0 / no-dynamic-refine / no-single-sei / no-hevc-aq / no-svt / qp-adaptation-range=1.00
Language : English
Default : Yes
Forced : No

Audio
ID : 2
Format : E-AC-3
Format/Info : Enhanced Audio Coding 3
Format settings, Endianness : Big
Codec ID : A_EAC3
Duration : 43 min 1 s
Bit rate mode : Constant
Bit rate : 640 kb/s
Channel(s) : 6 channels
Channel positions : Front: L C R, Side: L R, LFE
Sampling rate : 48.0 kHz
Frame rate : 187.500 FPS (256 spf)
Compression mode : Lossy
Stream size : 197 MiB (21%)
Language : English
Default : Yes
Forced : No

Subtitle
ID : 3
Format : UTF-8
Codec ID : S_TEXT/UTF8
Codec ID/Info : UTF-8 Plain Text
Duration : 42 min 9 s
Bit rate : 45 b/s
Count of elements : 511
Stream size : 14.1 KiB (0%)
Language : English
Default : Yes
Forced : No



Source Information

Code:Release:
Unknown Source/NO-GROUP




We have no issue with individuals posting or re-uploading our torrents on a platform we aren't on. However, if this is something you'd like to do, please do so in a 'as-is' format. We ask that you do not create a new torrent, include all descriptions you see above including the UTR logo, tags, notes and screenshots. If you'd like to become a permanent poster on a website we don't post to, feel free to get in contact with a UniTeam member.


Related torrents

Torrent NameAddedSizeSeedLeechHealth
25 days ago - in TV shows870.61 MB145
7 months ago - in TV shows1.03 GB43
8 months ago - in TV shows549.72 MB125
12 days ago - in TV shows1.03 GB101
12 days ago - in TV shows1.58 GB42
7 months ago - in TV shows1.02 GB00

Note :

Feel free to post any comments about this torrent, including links to Subtitle, samples, screenshots, or any other relevant information. Please Dont Download anything from Comments And Links to Streaming Sites like Watch Online The Son S02E03 (1080p AMZN WEB-DL x265 HEVC 10bit AC3 5 1 Qman) [ free etc.

Comments (0 Comments)




Please login or create a FREE account to post comments
Quick Browse
Movies
TV shows
Music
Games
Applications
Anime
Other

Latest Articles

Friends

LimeTorrents

Latest Searches